Seite 362 von 362 ErsteErste ... 262312352358359360361362
Ergebnis 7.221 bis 7.239 von 7.239
  1. #7221
    Mitglied
    Registriert seit
    Feb 2015
    Beiträge
    157
    Danksagungen
    0

    Standard Re: Videos von Webseiten runterladen: Sammelthread (alle Fragen hier rein)

    Zitat Zitat von kaffeereiter Beitrag anzeigen
    Alles von RTL / TVNOW ist auch DRM geschützt.
    Da muss ich dir widersprechen. Die selbe Folge ist (in schlechterer Qualität) runterladbar:
    Code:
    http://api.tvnow.de/v3/movies/sankt-maik/vom-regen-in-die-kirche?fields=manifest.dashclear
    liefert ein mpd-Manifest, das man mit youtube-dl runterladen kann.

  2. #7222
    Mitglied
    Registriert seit
    May 2011
    Beiträge
    187
    Danksagungen
    0

    Standard Re: Videos von Webseiten runterladen: Sammelthread (alle Fragen hier rein)

    Hallo zusammen,

    ich habe gerade ein Problem, das ich einfach nicht wie gewünscht gelöst bekomme.

    Hier zunächst die Ausgangssituation:
    Mit youtube-dl lassen sich mit dem Argument -g prima die Download-URLs von vielen Videos als MP4 auslesen. Diese kann man in eine Text-Datei kopieren und dann einem Download-Tool übergeben. Soweit alles kein Problem.

    Aber wie schafft man es, das zumindest halb automatisiert mit einer Batch-Datei zu erledigen? Wenn ich hinter jeden youtube-dl-Aufruf >> Output.txt dahinter setze, schreibt er mir alles in eine Zeile, was total unbrauchbar ist.

    Wie sage ich der Batch-Datei, dass jede Ausgabe von youtube-dl -g in einer neuen Zeile zu erfolgen hat?

    Kann hier jemand mal ein Beispiel liefern, wie das klappen würde?

    Vielen Dank und viele Grüße
    websurfer83.

  3. #7223
    Mitglied
    Registriert seit
    Feb 2015
    Beiträge
    157
    Danksagungen
    0

    Standard Re: Videos von Webseiten runterladen: Sammelthread (alle Fragen hier rein)

    Zitat Zitat von websurfer83 Beitrag anzeigen
    Wenn ich hinter jeden youtube-dl-Aufruf >> Output.txt dahinter setze, schreibt er mir alles in eine Zeile, was total unbrauchbar ist.
    Das Problem ist nicht, dass am Zeilenende kein Zeilenumbruch ist, sondern, dass der Windows-Editor diese nicht richtig darstellen kann.
    Bekanntlich verwenden Unix und Windows unterschiedliche Zeichen, um in Textdateien einen Zeilenumbruch zu definieren. Während Unix lediglich ein LineFeed ('\n', hex 0x0a) verwendet, benutzt Windows die Kombination CarriageReturn/LineFeed ('\r\n', hex 0x0D0A).
    Quelle: https://www.qfs.de/qf-test-handbuch/...inebreaks.html
    Ich kann dir nur empfehlen, auf einen anderen Editor umzusteigen. Ich benutze seit Jahren schon Notepad++ und hatte noch nie Probleme.

  4. #7224
    Mitglied
    Registriert seit
    May 2011
    Beiträge
    187
    Danksagungen
    0

    Standard Re: Videos von Webseiten runterladen: Sammelthread (alle Fragen hier rein)

    Zitat Zitat von w0fmI_64 Beitrag anzeigen
    Das Problem ist nicht, dass am Zeilenende kein Zeilenumbruch ist, sondern, dass der Windows-Editor diese nicht richtig darstellen kann.

    Ich kann dir nur empfehlen, auf einen anderen Editor umzusteigen. Ich benutze seit Jahren schon Notepad++ und hatte noch nie Probleme.
    Cool, danke, du hattest Recht! Ich nutze Notepad++ auch, aber primär für Dateien aus dem Linux/Unix-Umfeld, da mir die Thematik sehr vertraut ist.

    Ich hätte aber nicht gedacht, dass eine aus Windows erzeugte Datei (aus der CMD-Shell) ebenfalls dieses Problem haben kann.

    Aber siehe da: Notepad++ stellt die Datei mit Zeilenumbrüchen korrekt dar und auch der NAS-Server, der die Downloads verarbeiten soll, kommt mit dieser Datei klar.

    Vielen Dank nochmals!

    Gruß
    websurfer83.

  5. #7225
    Mitglied
    Registriert seit
    May 2006
    Beiträge
    11
    Danksagungen
    0

    Standard Re: Videos von Webseiten runterladen: Sammelthread (alle Fragen hier rein)

    Hallo,

    ist es möglich aus dem Eurosport Player (ich hab' ein Abo dafür) zu downloaden?
    Mit den Addons in Chrome und Firefox (z.B. Flash Video Downloader oder Adobe HDS /HLS Video Saver) kann man die Datei runterladen, allerdings lässt sie sich nachher nicht abspielen.

    z.B.:

    https://de.eurosportplayer.com/video/das-komplette-spiel-eintracht-frankfurt-gegen-borussia-monchengladbach/35840212

    Adobe HDS /HLS Video Saver zeigt das hier an:


    https://vod-amz.eu-west-1.media.eurosportplayer.com/1949/media/hls/2018/01/27/194980b5-0ac7-4d2d-b71a-21f0fa0f8c29/1517016607253/asset_3500k.m3u8

    Eine Video.ts - Datei wird zwar erstellt, lässt sich aber leider nicht abspielen.

  6. #7226
    大麻のゴブリン Avatar von maddog
    Registriert seit
    Feb 2000
    Ort
    アイルランド
    Beiträge
    319
    Danksagungen
    10

    Standard Re: Videos von Webseiten runterladen: Sammelthread (alle Fragen hier rein)

    Hallo,
    Zitat Zitat von clemigunde Beitrag anzeigen
    (ich hab' ein Abo dafür).
    Ich nicht. Hört sich aber nach DRM an.

    Code:
    Private$ curl -s "https://vod-amz.eu-west-1.media.eurosportplayer.com/1949/media/hls/2018/01/27/194980b5-0ac7-4d2d-b71a-21f0fa0f8c29/1517016607253/asset_3500k.m3u8"
    #EXTM3U
    #EXT-X-VERSION:4
    #EXT-X-TARGETDURATION:5
    #EXT-X-MEDIA-SEQUENCE:1
    #EXT-X-PLAYLIST-TYPE:VOD
    #EXT-X-PROGRAM-DATE-TIME:2018-01-27T00:00:00.040Z
    #EXTINF:5,
    #EXT-X-KEY:METHOD=AES-128,URI="https://drm-api.svcs.eurosportplayer.com/media/194980b5-0ac7-4d2d-b71a-21f0fa0f8c29/keys/f5e24210-09ba-4766-b46e-4cb247cfbea8",IV=0xC6233B5571C29971C76C12F6F99D0243
    asset_3500k/00000/asset_3500k_00001.ts
    #EXTINF:5,
    asset_3500k/00000/asset_3500k_00002.ts
    #EXTINF:5,
    asset_3500k/00000/asset_3500k_00003.ts
    ...
    ...
    Geändert von maddog (14. 02. 2018 um 07:12 Uhr) Grund: Ergänzung

  7. #7227
    Mitglied
    Registriert seit
    May 2006
    Beiträge
    11
    Danksagungen
    0

    Standard Re: Videos von Webseiten runterladen: Sammelthread (alle Fragen hier rein)

    Zitat Zitat von maddog Beitrag anzeigen
    Hallo,


    Ich nicht. Hört sich aber nach DRM an.

    Code:
    Private$ curl -s "https://vod-amz.eu-west-1.media.eurosportplayer.com/1949/media/hls/2018/01/27/194980b5-0ac7-4d2d-b71a-21f0fa0f8c29/1517016607253/asset_3500k.m3u8"
    #EXTM3U
    #EXT-X-VERSION:4
    #EXT-X-TARGETDURATION:5
    #EXT-X-MEDIA-SEQUENCE:1
    #EXT-X-PLAYLIST-TYPE:VOD
    #EXT-X-PROGRAM-DATE-TIME:2018-01-27T00:00:00.040Z
    #EXTINF:5,
    #EXT-X-KEY:METHOD=AES-128,URI="https://drm-api.svcs.eurosportplayer.com/media/194980b5-0ac7-4d2d-b71a-21f0fa0f8c29/keys/f5e24210-09ba-4766-b46e-4cb247cfbea8",IV=0xC6233B5571C29971C76C12F6F99D0243
    asset_3500k/00000/asset_3500k_00001.ts
    #EXTINF:5,
    asset_3500k/00000/asset_3500k_00002.ts
    #EXTINF:5,
    asset_3500k/00000/asset_3500k_00003.ts
    ...
    ...
    Ja, ist leider DRM geschützt.

  8. #7228
    Mitglied
    Registriert seit
    Mar 2013
    Beiträge
    12
    Danksagungen
    0

    Standard Re: Videos von Webseiten runterladen: Sammelthread (alle Fragen hier rein)

    Hallo,

    es geht um Filme von SAT1, insbesondere um "Das große Promibacken"

    https://www.sat1.de/tv/das-grosse-pr...he-ganze-folge

    Die Sendung (vom 21.02.2018) ist in fünf Teile aufgeteilt. Die Url für die Teile 2 bis 5 bekomme ich in Firefox über "Seiteninformationen/Medien"

    Nur beim Teil 1 funktioniert das nicht. Da bekomme ich nur ein "blob:https://www.sat1.de/61a05ecf-0e5a-4992-b9e4-5c56cf93dc09"

    Weiß jemand Rat?

    Gruß Barkle

  9. #7229
    大麻のゴブリン Avatar von maddog
    Registriert seit
    Feb 2000
    Ort
    アイルランド
    Beiträge
    319
    Danksagungen
    10

    Standard Re: Videos von Webseiten runterladen: Sammelthread (alle Fragen hier rein)

    Code:
    youtube-dl "https://www.sat1.de/tv/das-grosse-promibacken/video/22-enormer-zeitdruck-und-misslungene-backversuche-ganze-folge"

    Spoiler: 

    Code:
    mediainfo "Das große Promibacken - Enormer Zeitdruck und misslungene Backversuche-5363229.mp4" 
    General
    Complete name                            : Das große Promibacken - Enormer Zeitdruck und misslungene Backversuche-5363229.mp4
    Format                                   : MPEG-4
    Format profile                           : Base Media
    Codec ID                                 : isom (isom/iso2/avc1/mp41)
    File size                                : 3.00 GiB
    Duration                                 : 2 h 11 min
    Overall bit rate                         : 3 277 kb/s
    Encoded date                             : UTC 1904-01-01 00:00:00
    Tagged date                              : UTC 1904-01-01 00:00:00
    Writing application                      : Lavf57.56.101
    
    Video
    ID                                       : 1
    Format                                   : AVC
    Format/Info                              : Advanced Video Codec
    Format profile                           : Main@L3.1
    Format settings, CABAC                   : Yes
    Format settings, ReFrames                : 4 frames
    Format settings, GOP                     : M=4, N=50
    Codec ID                                 : avc1
    Codec ID/Info                            : Advanced Video Coding
    Duration                                 : 2 h 11 min
    Bit rate                                 : 3 143 kb/s
    Width                                    : 1 280 pixels
    Height                                   : 720 pixels
    Display aspect ratio                     : 16:9
    Frame rate mode                          : Constant
    Frame rate                               : 25.000 FPS
    Color space                              : YUV
    Chroma subsampling                       : 4:2:0
    Bit depth                                : 8 bits
    Scan type                                : Progressive
    Bits/(Pixel*Frame)                       : 0.136
    Stream size                              : 2.88 GiB (96%)
    Writing library                          : x264 core 150
    Language                                 : German
    Encoded date                             : UTC 1904-01-01 00:00:00
    Tagged date                              : UTC 1904-01-01 00:00:00
    Color range                              : Limited
    Color primaries                          : BT.709
    Transfer characteristics                 : BT.709
    Matrix coefficients                      : BT.709
    
    Audio
    ID                                       : 2
    Format                                   : AAC
    Format/Info                              : Advanced Audio Codec
    Format profile                           : LC
    Codec ID                                 : 40
    Duration                                 : 2 h 11 min
    Bit rate mode                            : Constant
    Bit rate                                 : 128 kb/s
    Channel(s)                               : 2 channels
    Channel positions                        : Front: L R
    Sampling rate                            : 48.0 kHz
    Frame rate                               : 46.875 FPS (1024 spf)
    Compression mode                         : Lossy
    Stream size                              : 120 MiB (4%)
    Language                                 : German
    Default                                  : Yes
    Alternate group                          : 1
    Encoded date                             : UTC 1904-01-01 00:00:00
    Tagged date                              : UTC 1904-01-01 00:00:00

  10. #7230
    Mitglied
    Registriert seit
    Mar 2013
    Beiträge
    12
    Danksagungen
    0

    Standard Re: Videos von Webseiten runterladen: Sammelthread (alle Fragen hier rein)

    Zitat Zitat von maddog Beitrag anzeigen
    Code:
    youtube-dl "https://www.sat1.de/tv/das-grosse-promibacken/video/22-enormer-zeitdruck-und-misslungene-backversuche-ganze-folge"
    Vielen Dank für den Hinweis auf youtube-dl. Damit funktioniert es.

    Da ich nicht die beste Auflösung haben möchte, sehe ich mir mit "youtube-dl -F" die verschiedenen Formate an und wähle dann mit zB "youtube-dl -f hls-1408" die entsprechende Auflösung aus.

    Ist das immer hls-1408 oder ändert sich der Name von Video zu Video?

    Wenn ich mehrere Videos herunterladen möchte, dann kann ich deren Namen in eine Datei schreiben und diese mit "youtube-dl -a Liste.txt" übergeben. Gibt es einen Weg auch die gewünschte Auflösung und eventuell den Namen (mit Pfad) des Videos ebenfalls in eine Datei zu schreiben? Oder ist es besser/einfacher, das über ein bash-Script zu machen?


    Gruß Barkle

  11. #7231
    大麻のゴブリン Avatar von maddog
    Registriert seit
    Feb 2000
    Ort
    アイルランド
    Beiträge
    319
    Danksagungen
    10

    Standard Re: Videos von Webseiten runterladen: Sammelthread (alle Fragen hier rein)

    Youtube-dl lädt ohne Parameter immer den besten Video- und Audio-Track. Mit dem Parameter -a lassen sich m.E. nur URLs übergeben, ansonsten siehe Manual.

    Wenn du ein bestimmtes Video in einer bestimmten Auflösung haben willst, würde ich den Output von youtube-dl -F per Batch/bash parsen, das kann aber in Arbeit ausarten, weil jedes Video in einem anderen Format vorliegen kann, z.B. auch Bild und Ton getrennt, dann müßtest du den Parameter -f zwei mal in der Kommandozeile angeben. Möglicherweise ist das gewünschte Format gar nicht dabei- was dann?

    Spoiler: 

    Code:
    $ youtube-dl -F "https://www.sat1.de/tv/das-grosse-promibacken/video/22-enormer-zeitdruck-und-misslungene-backversuche-ganze-folge"
    [prosiebensat1] tv/das-grosse-promibacken/video/22-enormer-zeitdruck-und-misslungene-[..]
    [info] Available formats for 5363229:
    format code         extension  resolution note
    dash-audio=64000    m4a        audio only [de] DASH audio   64k , m4a_dash container, mp4a.40.2 (48000Hz)
    dash-audio=96000    m4a        audio only [de] DASH audio   96k , m4a_dash container, mp4a.40.2 (48000Hz)
    dash-audio=128000   m4a        audio only [de] DASH audio  128k , m4a_dash container, mp4a.40.2 (48000Hz)
    dash-video=200000   mp4        416x234    [de] DASH video  200k , mp4_dash container, avc1.42C00D, video only
    dash-video=400000   mp4        480x270    [de] DASH video  400k , mp4_dash container, avc1.42C015, video only
    dash-video=600000   mp4        640x360    [de] DASH video  600k , mp4_dash container, avc1.42C01E, video only
    dash-video=1200000  mp4        640x360    [de] DASH video 1200k , mp4_dash container, avc1.42C01E, video only
    dash-video=1800000  mp4        960x540    [de] DASH video 1800k , mp4_dash container, avc1.4D401F, video only
    dash-video=2200000  mp4        960x540    [de] DASH video 2200k , mp4_dash container, avc1.4D401F, video only
    dash-video=2500000  mp4        1280x720   [de] DASH video 2500k , mp4_dash container, avc1.4D401F, video only
    dash-video=3500000  mp4        1280x720   [de] DASH video 3500k , mp4_dash container, avc1.4D401F, video only
    hds-264             flv        416x234     264k 
    hls-280             mp4        416x234     280k , avc1.42C00D, mp4a.40.2
    hds-496             flv        480x270     496k 
    hls-526             mp4        480x270     526k , avc1.42C015, mp4a.40.2
    hds-728             flv        640x360     728k 
    hls-772             mp4        640x360     772k , avc1.42C01E, mp4a.40.2
    http-1296           mp4        unknown    1296k 
    hds-1328            flv        640x360    1328k 
    hls-1408            mp4        640x360    1408k , avc1.42C01E, mp4a.40.2
    http-1896           mp4        unknown    1896k 
    hds-1928            flv        960x540    1928k 
    hls-2044            mp4        960x540    2044k , avc1.4D401F, mp4a.40.2
    hds-2328            flv        960x540    2328k 
    hls-2468            mp4        960x540    2468k , avc1.4D401F, mp4a.40.2
    hds-2628            flv        1280x720   2628k 
    hls-2786            mp4        1280x720   2786k , avc1.4D401F, mp4a.40.2
    hds-3628            flv        1280x720   3628k 
    hls-3846            mp4        1280x720   3846k , avc1.4D401F, mp4a.40.2 (best)

    Du kannst bei -f z.B. auch mp4 angeben (siehe Format Selection).
    Geändert von maddog (05. 03. 2018 um 12:09 Uhr) Grund: Ergänzung

  12. #7232
    Mitglied
    Registriert seit
    Mar 2013
    Beiträge
    12
    Danksagungen
    0

    Standard Re: Videos von Webseiten runterladen: Sammelthread (alle Fragen hier rein)

    Zitat Zitat von maddog Beitrag anzeigen
    Wenn du ein bestimmtes Video in einer bestimmten Auflösung haben willst, würde ich den Output von youtube-dl -F per Batch/bash parsen, [...]
    Es wird wohl ein bash-Script werden mit
    Code:
    youtube-dl -f "best[ext = mp4][width <= 640][tbr < 1200] -o $Video_Namen $Video_URL
    Ist allerdings noch nicht getestet, da mir etwas die Zeit fehlt.

  13. #7233
    大麻のゴブリン Avatar von maddog
    Registriert seit
    Feb 2000
    Ort
    アイルランド
    Beiträge
    319
    Danksagungen
    10

    Standard Re: Videos von Webseiten runterladen: Sammelthread (alle Fragen hier rein)

    Das wird so nicht funktionieren, ’$Video_Namen $Video_URL’ würden als nicht definierte bash Variablen interpretiert werden.

  14. #7234
    Mitglied
    Registriert seit
    Jan 2010
    Beiträge
    55
    Danksagungen
    0

    Standard Re: Videos von Webseiten runterladen: Sammelthread (alle Fragen hier rein)

    Hallo, liebe Leute,

    da es sich hierbei nicht um eine US-Serie oder Blockbuster handelt, wage ich die Frage:
    Ist folgende Sendung zu bekommen? Und falls ja, wie?
    https://www.prosieben.de/tv/galileo-...ur-ganze-folge
    Besten Dank für eure Hilfe!

  15. #7235
    大麻のゴブリン Avatar von maddog
    Registriert seit
    Feb 2000
    Ort
    アイルランド
    Beiträge
    319
    Danksagungen
    10

    Standard Re: Videos von Webseiten runterladen: Sammelthread (alle Fragen hier rein)

    Das steht hier auf fast jeder Seite im Thread.

  16. #7236
    Mitglied
    Registriert seit
    Jan 2010
    Beiträge
    55
    Danksagungen
    0

    Standard Re: Videos von Webseiten runterladen: Sammelthread (alle Fragen hier rein)

    Habe den Youtube-DLG geupdated auf 0.4 und schwupps, es ging.
    Dachte, es hätte sich grundsätzliches geändert...
    Hoffe, das hilft auch anderen!

  17. #7237
    Mitglied
    Registriert seit
    Oct 2017
    Beiträge
    1
    Danksagungen
    0

    Standard Re: Videos von Webseiten runterladen: Sammelthread (alle Fragen hier rein)

    Hallo zusammen. Ich bin mit einigen der Programme ein absoluter Neuling. Ich wollte die Let's Dance Folge von gestern bei RTL-NOW runterladen, nachdem mein T-Home mal wieder gemeint hat, es muss sich aufhängen und die programmierte Aufnahme natürlich nicht gestartet hat, grummel.

    Es geht um folgendes Video

    https://www.tvnow.de/rtl/lets-dance/...erm=lets-dance

    Ich habe es mit YouTube-DLG versucht, aber irgendwie komme ich mit den Einstellungen wohl nicht zurecht.

    Ich habe den obigen Link eingegeben, die Einstellungen auf "default" belassen und Add geklickt. Danach bekomme ich folgenden Code.

    Code:
    youtube-dl.exe --newline -i -k -o "C:\Dokumente und Einstellungen\User\%(title)s.%(ext)s" --ignore-config --hls-prefer-native --add-metadata "https://www.tvnow.de/rtl/lets-dance/die-6-liveshow-von-let-s-dance/player?utm_source=RTL&utm_medium=link&utm_campaign=Ganze_Folgen&utm_term=lets-dance"
    Nach Starten des Downloads lädt er zwar ne halbe Stunde lang runter (2 Files, das eine wohl Video, das andere Audio) aber er muxt dann nichts zusammen und es lässt sich nicht abspielen. Die heruntergeladenen Files lauten:
    Die 6. Liveshow von 'Let's Dance'.fdash-video=1400000.mp4
    und
    Die 6. Liveshow von 'Let's Dance'.fhls-136.mp4

    Im Log steht dann die Fehlermeldung:
    [04/28/18 06:04:16] ERROR:
    [04/28/18 06:04:16] ERROR: [WinError 2] Das System kann die angegebene Datei nicht finden: "C:\\Dokumente und Einstellungen\\User\\Die 6. Liveshow von 'Let's Dance'.mp4"

    Ja klar kann er die nicht finden... die müsste er ja wohl erstmal zusammenmuxen.

    Kann mir da irgendwer vielleicht auf die Sprünge helfen?

    Ich möchte noch ergänzen dass ich bisher keinerlei Erfahrungen mit youtube-dl etc. habe. Ich hab zwar die Dokumentation dazu gelesen, aber so wirklich schlau werde ich da nicht draus...
    Geändert von Asmodis_666 (28. 04. 2018 um 07:22 Uhr)

  18. #7238
    大麻のゴブリン Avatar von maddog
    Registriert seit
    Feb 2000
    Ort
    アイルランド
    Beiträge
    319
    Danksagungen
    10

    Standard Re: Videos von Webseiten runterladen: Sammelthread (alle Fragen hier rein)

    Code:
    youtube-dl --prefer-ffmpeg "https://www.tvnow.de/rtl/lets-dance/die-6-liveshow-von-let-s-dance/player?utm_source=RTL&utm_medium=link&utm_campaign=Ganze_Folgen&utm_term=lets-dance"
    FFmpeg oder avconv muss für das Postprocessing installiert sein, siehe "youtube-dl -h":
    Code:
        --prefer-avconv                  Prefer avconv over ffmpeg for running the postprocessors (default)
        --prefer-ffmpeg                  Prefer ffmpeg over avconv for running the postprocessors

    Spoiler: 

    Code:
    mediainfo "Die 6. Liveshow von 'Let's Dance'-428456.mp4"
    General
    Complete name                            : Die 6. Liveshow von 'Let's Dance'-428456.mp4
    Format                                   : MPEG-4
    Format profile                           : Base Media
    Codec ID                                 : isom (isom/iso2/avc1/mp41)
    File size                                : 1.66 GiB
    Duration                                 : 2 h 28 min
    Overall bit rate mode                    : Variable
    Overall bit rate                         : 1 608 kb/s
    Encoded date                             : UTC 1904-01-01 00:00:00
    Tagged date                              : UTC 1904-01-01 00:00:00
    Writing application                      : Lavf57.56.101
    
    Video
    ID                                       : 1
    Format                                   : AVC
    Format/Info                              : Advanced Video Codec
    Format profile                           : Main@L3.1
    Format settings, CABAC                   : Yes
    Format settings, ReFrames                : 1 frame
    Format settings, GOP                     : M=1, N=25
    Codec ID                                 : avc1
    Codec ID/Info                            : Advanced Video Coding
    Duration                                 : 2 h 28 min
    Bit rate mode                            : Constant
    Bit rate                                 : 1 480 kb/s
    Width                                    : 960 pixels
    Height                                   : 540 pixels
    Display aspect ratio                     : 16:9
    Frame rate mode                          : Constant
    Frame rate                               : 25.000 FPS
    Color space                              : YUV
    Chroma subsampling                       : 4:2:0
    Bit depth                                : 8 bits
    Scan type                                : Progressive
    Bits/(Pixel*Frame)                       : 0.114
    Stream size                              : 1.53 GiB (92%)
    Language                                 : German
    Encoded date                             : UTC 1904-01-01 00:00:00
    Tagged date                              : UTC 1904-01-01 00:00:00
    Color range                              : Limited
    Color primaries                          : BT.601 NTSC
    Transfer characteristics                 : BT.601
    Matrix coefficients                      : BT.601
    
    Audio
    ID                                       : 2
    Format                                   : AAC
    Format/Info                              : Advanced Audio Codec
    Format profile                           : LC
    Codec ID                                 : 40
    Duration                                 : 2 h 28 min
    Bit rate mode                            : Variable
    Bit rate                                 : 125 kb/s
    Maximum bit rate                         : 128 kb/s
    Channel(s)                               : 2 channels
    Channel positions                        : Front: L R
    Sampling rate                            : 48.0 kHz
    Frame rate                               : 46.875 FPS (1024 spf)
    Compression mode                         : Lossy
    Stream size                              : 133 MiB (8%)
    Language                                 : German
    Default                                  : Yes
    Alternate group                          : 1
    Encoded date                             : UTC 1904-01-01 00:00:00
    Tagged date                              : UTC 1904-01-01 00:00:00

  19. #7239
    大麻のゴブリン Avatar von maddog
    Registriert seit
    Feb 2000
    Ort
    アイルランド
    Beiträge
    319
    Danksagungen
    10

    Standard Re: Videos von Webseiten runterladen: Sammelthread (alle Fragen hier rein)

    Auf YT tauchen zunehmend nicht downloadbare Videos ohne DRM auf. Nachdem ich mich drei Stunden mit der Technik auseinander gesetzt hab, geb ich's erst mal auf. Vielleicht hat ja jemand eine zündende Idee oder ich steh heut auf dem Schlauch.

    Es geht beispielsweise um https://www.youtube.com/watch?v=-tcQJxb_EGc

    Es geht mir weniger um den Inhalt (man kann es hier runterladen) als die Technik.

Seite 362 von 362 ErsteErste ... 262312352358359360361362

Berechtigungen

  • Neue Themen erstellen: Nein
  • Themen beantworten: Nein
  • Anhänge hochladen: Nein
  • Beiträge bearbeiten: Nein
  •