Ergebnis 1 bis 5 von 5
  1. #1
    Mitglied
    Registriert seit
    Jan 2013
    Beiträge
    2
    Danksagungen
    0

    Standard Panasonic SD10 Bilder ruckeln

    Hallo,

    ich habe nun schon über 2 Jahre ein Panasonic HDC-SD10.

    Seit einiger Zeit stelle ich fest:

    Bei Videos, die von einem (ganz sicher nicht wackelnden) Stativ oder freihändig gemacht werden, wackeln die Bilder auf und ab, egal ob Stabilisator an oder aus, und zwar sowohl wenn man die Videos am Gerät anschaut oder später am PC oder auf youtube.

    Hat da jemand eine Erklärung oder gar eine Lösung?

  2. #2
    deaktivierter Nutzer
    deaktiviertes Benutzerkonto

    Standard Re: Panasonic SD10 Bilder ruckeln

    YT: Link?

  3. #3
    Mitglied

    (Threadstarter)


    Registriert seit
    Jan 2013
    Beiträge
    2
    Danksagungen
    0

    Standard Re: Panasonic SD10 Bilder ruckeln


  4. #4
    ex-Moderator Avatar von CCS
    Registriert seit
    Aug 2003
    Beiträge
    24.208
    Danksagungen
    0

    Standard Re: Panasonic SD10 Bilder ruckeln

    falscher Bereich

    -> MOVED!

    Cee ya, CCS

  5. #5
    deaktivierter Nutzer
    deaktiviertes Benutzerkonto

    Standard Re: Panasonic SD10 Bilder ruckeln

    Spoiler: 

    Code:
    General
    Complete name                            : 91441.flv
    Format                                   : Flash Video
    File size                                : 3.50 MiB
    Duration                                 : 11s 781ms
    Overall bit rate                         : 2 490 Kbps
    Tagged date                              : UTC 2013-01-01 16:43:16
    Tagging application                      : inlet media FLVTool2 v1.0.6 - http://www.inlet-media.de/flvtool2
    
    Video
    Format                                   : Sorenson Spark
    Codec ID                                 : 2
    Duration                                 : 11s 360ms
    Bit rate                                 : 2 549 Kbps
    Width                                    : 768 pixels
    Height                                   : 432 pixels
    Display aspect ratio                     : 16:9
    Frame rate mode                          : Constant
    Frame rate                               : 25.000 fps
    Bit depth                                : 8 bits
    Bits/(Pixel*Frame)                       : 0.307
    Stream size                              : 3.44 MiB (98%)
    
    Audio
    Format                                   : MPEG Audio
    Format version                           : Version 2
    Format profile                           : Layer 3
    Mode                                     : Joint stereo
    Mode extension                           : MS Stereo
    Codec ID                                 : 2
    Codec ID/Hint                            : MP3
    Duration                                 : 11s 781ms
    Bit rate mode                            : Constant
    Bit rate                                 : 32.0 Kbps
    Channel(s)                               : 2 channels
    Sampling rate                            : 22.05 KHz
    Compression mode                         : Lossy
    Stream size                              : 51.3 KiB (1%)
    Writing library                          : LAME3.98.2
    Das Opernhaus wackelt, in der Tat. Auch auf meinem VLC/MPC-HC.
    Tippe auf "Stabilisator kaputt" oder ähnliches HW-Problem.
    Sorry, kann ich nix gescheites sonst zu beitragen.

  6.  
     
     

Berechtigungen

  • Neue Themen erstellen: Nein
  • Themen beantworten: Nein
  • Anhänge hochladen: Nein
  • Beiträge bearbeiten: Nein
  •